<?xml version="1.0" encoding="UTF-8" standalone="no"?>
<!-- Creator: CorelDRAW 2021 (64 Bit) -->

<svg
   xml:space="preserve"
   width="61.415184mm"
   height="8mm"
   version="1.1"
   style="clip-rule:evenodd;fill-rule:evenodd;image-rendering:optimizeQuality;shape-rendering:geometricPrecision;text-rendering:geometricPrecision"
   viewBox="0 0 6304.9473 821.28993"
   id="svg10079"
   sodipodi:docname="ETAPAS.svg"
   inkscape:export-filename="a.svg"
   inkscape:export-xdpi="96"
   inkscape:export-ydpi="96"
   xmlns:inkscape="http://www.inkscape.org/namespaces/inkscape"
   xmlns:sodipodi="http://sodipodi.sourceforge.net/DTD/sodipodi-0.dtd"
   xmlns="http://www.w3.org/2000/svg"
   xmlns:svg="http://www.w3.org/2000/svg"><sodipodi:namedview
   id="namedview10081"
   pagecolor="#ffffff"
   bordercolor="#000000"
   borderopacity="0.25"
   inkscape:showpageshadow="2"
   inkscape:pageopacity="0.0"
   inkscape:pagecheckerboard="0"
   inkscape:deskcolor="#d1d1d1"
   inkscape:document-units="mm"
   showgrid="false"
   inkscape:lockguides="true" />
 <defs
   id="defs9999"><font
     id="FontID33"
     horiz-adv-x="722"
     font-variant="normal"
     style="fill-rule:nonzero"
     font-weight="700"
     horiz-origin-x="0"
     horiz-origin-y="0"
     vert-origin-x="512"
     vert-origin-y="768"
     vert-adv-y="1024">
	<font-face
   font-family="Arial"
   id="font-face9868">
		<font-face-src>
			<font-face-name
   name="Arial Negrito" />
		</font-face-src>
	</font-face>
   <missing-glyph
   id="missing-glyph9872"><path
     d="M0 0z"
     id="path9870" /></missing-glyph>
   <glyph
   unicode="C"
   horiz-adv-x="722"
   d="M531.009 264.006l139.991 -43.0055c-21.5028,-78.8435 -57.3407,-137.338 -107.332,-175.667 -50.0111,-38.1664 -113.325,-57.3407 -190.164,-57.3407 -95.1629,0 -173.338,32.4971 -234.668,97.5116 -61.1675,64.9942 -91.8423,153.82 -91.8423,266.659 0,119.176 30.8368,211.829 92.3485,277.835 61.4914,66.0066 142.481,99.0099 242.827,99.0099 87.6713,0 158.821,-26.0179 213.489,-77.8513 32.6793,-30.6546 57.0167,-74.6523 73.3362,-132.155l-142.987 -33.9954c-8.50392,36.992 -26.1799,66.3306 -53.0078,87.8333 -27.0101,21.5028 -59.6692,32.1529 -97.9975,32.1529 -53.1697,0 -96.3372,-18.9921 -129.341,-57.1585 -33.1653,-38.0044 -49.6669,-99.6578 -49.6669,-185.001 0,-90.3238 16.3397,-154.832 48.8368,-193.16 32.6591,-38.5106 74.9965,-57.6647 127.174,-57.6647 38.4904,0 71.6556,12.1485 99.3339,36.6478 27.658,24.5196 47.6624,62.848 59.6692,115.35z"
   id="glyph9874" />
   <glyph
   unicode="D"
   horiz-adv-x="722"
   d="M72.992 716.01l263.682 0c59.4869,0 104.821,-4.51518 136.002,-13.667 41.8312,-12.3509 77.8311,-34.3396 107.656,-66.0066 30.0067,-31.505 52.6635,-70.1776 68.3351,-115.997 15.5095,-45.6782 23.325,-102.168 23.325,-169.167 0,-59.001 -7.32957,-109.68 -21.9887,-152.342 -17.838,-52.1574 -43.3295,-94.3327 -76.4948,-126.506 -25.0056,-24.4994 -58.839,-43.4915 -101.338,-57.1585 -31.8289,-10.1642 -74.3283,-15.1653 -127.66,-15.1653l-271.518 0 0 716.01zm145.012 -121.019l0 -473.992 107.494 0c40.1709,0 69.1652,2.32845 87.0032,6.84363 23.5073,5.83126 42.8233,15.8335 58.1708,29.8245 15.4893,13.991 28.0022,36.992 37.6602,69.0032 9.84025,31.9909 14.6591,75.8266 14.6591,131.163 0,55.3362 -4.81889,97.6736 -14.6591,127.336 -9.65802,29.6625 -23.325,52.6635 -40.8391,69.3272 -17.4938,16.5017 -39.6647,27.8402 -66.6545,33.6715 -20.0045,4.49493 -59.5072,6.82338 -118.164,6.82338l-64.6703 0z"
   id="glyph9876" />
   <glyph
   unicode="I"
   horiz-adv-x="277"
   d="M67.9908 0l0 716.01 145.012 0 0 -716.01 -145.012 0z"
   id="glyph9878" />
   <glyph
   unicode="a"
   horiz-adv-x="556"
   d="M174.006 359.007l-124.015 21.9887c14.0112,50.6793 38.1664,88.1775 72.344,112.495 34.1574,24.3374 84.9987,36.5061 152.342,36.5061 61.1472,0 106.825,-7.16759 136.832,-21.6647 29.8245,-14.4972 50.983,-32.8413 63.1517,-55.1742 12.1687,-22.3329 18.3442,-63.1517 18.3442,-122.821l-2.00449 -159.995c0,-45.5162 2.16647,-79.1674 6.49942,-100.832 4.33295,-21.685 12.4927,-44.848 24.4994,-69.5094l-136.002 0c-3.5028,9.0101 -7.99773,22.3329 -13.1608,40.0089 -2.16647,8.15971 -3.82676,13.4848 -4.83913,15.9955 -23.325,-23.0011 -48.3306,-40.1709 -74.9965,-51.6714 -26.6659,-11.5005 -54.992,-17.3318 -85.1607,-17.3318 -53.1697,0 -95.1831,14.4972 -125.838,43.4915 -30.6748,28.8323 -46.0021,65.5004 -46.0021,109.842 0,29.1563 7.00561,55.3362 20.9966,78.3373 14.0112,22.8188 33.5095,40.4948 58.839,52.6635 25.1675,12.1687 61.4914,22.8391 108.992,31.9909 64.0021,12.0067 108.506,23.3453 133.167,33.6715l0 13.829c0,26.6659 -6.49942,45.6782 -19.4983,57.1787 -13.1608,11.3183 -37.8222,16.9876 -74.0043,16.9876 -24.4994,0 -43.4915,-4.81889 -57.1585,-14.6591 -13.829,-9.65802 -24.8436,-26.8278 -33.3273,-51.3272zm183.988 -111.017c-17.4938,-5.83126 -45.334,-12.8166 -83.5004,-20.9966 -38.0044,-8.15971 -62.9897,-16.1574 -74.6523,-23.8312 -17.838,-12.8369 -26.8481,-28.8323 -26.8481,-48.3306 0,-19.3363 7.16759,-35.8379 21.5028,-49.8289 14.3352,-14.0112 32.4971,-20.9966 54.668,-20.9966 24.6614,0 48.3306,8.15971 70.8255,24.3172 16.5017,12.5129 27.5162,27.5162 32.6793,45.5162 3.5028,11.6625 5.32507,33.9954 5.32507,66.8367l0 27.3138z"
   id="glyph9880" />
   <glyph
   unicode="c"
   horiz-adv-x="556"
   d="M524.003 365l-135.01 -23.9932c-4.49493,26.8278 -14.8211,46.9943 -30.9988,60.6613 -16.1574,13.505 -36.992,20.3284 -62.6658,20.3284 -34.1574,0 -61.4914,-11.8245 -81.8198,-35.4937 -20.3487,-23.6692 -30.5129,-63.172 -30.5129,-118.67 0,-61.6737 10.3464,-105.165 30.9988,-130.657 20.6726,-25.5118 48.3306,-38.1664 83.0144,-38.1664 25.9977,0 47.3182,7.49155 63.8199,22.3329 16.6636,14.8211 28.3464,40.3329 35.1698,76.6567l135.01 -23.0011c-14.0112,-61.9976 -40.8391,-108.83 -80.5038,-140.497 -39.6647,-31.667 -92.8344,-47.5005 -159.671,-47.5005 -75.6646,0 -136.164,23.9932 -181.174,71.8379 -45.1518,47.9864 -67.6669,114.337 -67.6669,199.154 0,85.8491 22.6771,152.504 67.8491,200.348 45.1518,47.8244 106.319,71.6556 183.482,71.6556 63.01,0 113.183,-13.667 150.499,-40.8391 37.1743,-27.1518 63.8401,-68.497 80.1798,-124.157z"
   id="glyph9882" />
   <glyph
   unicode="e"
   horiz-adv-x="556"
   d="M372.006 164.004l136.994 -23.0011c-17.4938,-50.1731 -45.334,-88.3395 -83.1764,-114.661 -37.9842,-26.1799 -85.4846,-39.3407 -142.319,-39.3407 -90.1618,0 -156.999,29.5005 -200.166,88.5015 -34.1777,47.3385 -51.3475,106.987 -51.3475,179.169 0,85.9908 22.5151,153.496 67.3429,202.171 44.8278,48.8165 101.662,73.1539 170.342,73.1539 77.001,0 137.824,-25.4915 182.49,-76.4948 44.5038,-51.0033 65.8446,-129.179 63.8401,-234.506l-343.012 0c1.01237,-40.6568 12.0067,-72.3238 33.1653,-95.0009 21.0168,-22.6569 47.3385,-33.9954 78.6815,-33.9954 21.4825,0 39.4825,5.83126 53.9999,17.4938 14.6591,11.6828 25.6535,30.5129 33.1653,56.5106zm7.99773 138.999c-1.01237,39.8267 -11.1766,70.1573 -30.6748,90.8299 -19.4983,20.8346 -43.1675,31.1608 -71.1697,31.1608 -29.8245,0 -54.4858,-10.9944 -73.9841,-32.8211 -19.4983,-21.847 -29.0146,-51.6714 -28.6704,-89.1697l204.499 0z"
   id="glyph9884" />
   <glyph
   unicode="f"
   horiz-adv-x="333"
   d="M12.0067 519.002l75.9886 0 0 39.1585c0,43.6737 4.67715,76.3328 14.0112,97.8356 9.33406,21.6647 26.4836,39.1788 51.4892,52.6635 25.1675,13.505 56.8345,20.3487 95.1629,20.3487 39.1788,0 77.6691,-5.85151 115.35,-17.514l-17.514 -95.3249c-22.3329,5.16309 -43.8357,7.83575 -64.488,7.83575 -20.3487,0 -34.8458,-4.67715 -43.6737,-14.0112 -8.82788,-9.33406 -13.3228,-27.334 -13.3228,-53.9999l0 -36.992 102.999 0 0 -108 -102.999 0 0 -411.002 -137.014 0 0 411.002 -75.9886 0 0 108z"
   id="glyph9886" />
   <glyph
   unicode="h"
   horiz-adv-x="610"
   d="M207.01 716.01l0 -265.342c44.4836,52.8255 97.8153,79.3294 159.651,79.3294 31.8492,0 60.4993,-5.83126 86.0111,-17.4938 25.4915,-11.8447 44.6658,-26.6659 57.6647,-45.01 12.9988,-18.1619 21.8267,-38.3284 26.5039,-60.4993 4.81889,-22.1507 7.16759,-56.4903 7.16759,-102.999l0 -303.995 -137.014 0 0 273.664c0,54.3441 -2.65241,88.8457 -7.83575,103.505 -5.32507,14.6591 -14.6591,26.3217 -27.9819,34.8256 -13.3431,8.6659 -30.0067,12.9988 -50.1731,12.9988 -23.0011,0 -43.5117,-5.48705 -61.6737,-16.6636 -18.1619,-10.9944 -31.3228,-27.658 -39.6647,-49.9909 -8.50392,-22.1709 -12.6546,-55.1742 -12.6546,-98.6657l0 -259.673 -137.014 0 0 716.01 137.014 0z"
   id="glyph9888" />
   <glyph
   unicode="l"
   horiz-adv-x="277"
   d="M71.9998 0l0 716.01 136.994 0 0 -716.01 -136.994 0z"
   id="glyph9890" />
   <glyph
   unicode="m"
   horiz-adv-x="889"
   d="M61.9976 519.002l126 0 0 -70.8255c45.172,54.4858 99.0099,81.8198 161.493,81.8198 33.1855,0 62.0179,-6.82338 86.335,-20.4904 24.4994,-13.667 44.5038,-34.3396 60.0134,-61.9976 22.8188,27.658 47.5005,48.3306 73.8221,61.9976 26.3419,13.667 54.5061,20.4904 84.5127,20.4904 37.9842,0 70.1573,-7.65353 96.6612,-23.1631 26.3217,-15.5095 46.0021,-38.1664 59.001,-68.1731 9.49604,-21.9887 14.1732,-57.8266 14.1732,-107.332l0 -331.329 -137.014 0 0 296.159c0,51.5094 -4.65691,84.6747 -14.1529,99.5161 -12.6749,19.4983 -32.3351,29.3183 -58.677,29.3183 -19.1743,0 -37.3362,-5.83126 -54.3238,-17.4938 -16.8459,-11.8245 -29.1765,-28.9943 -36.6681,-51.5094 -7.51179,-22.6569 -11.1766,-58.3328 -11.1766,-107.149l0 -248.841 -136.994 0 0 283.99c0,50.3351 -2.51068,83.0144 -7.32957,97.5116 -4.83913,14.6591 -12.3307,25.6737 -22.6771,32.8413 -10.1642,7.14734 -24.1552,10.6501 -41.6692,10.6501 -21.1586,0 -40.1506,-5.66928 -56.9965,-16.9876 -16.9876,-11.5005 -28.9943,-27.8402 -36.3239,-49.343 -7.32957,-21.5028 -11.0146,-57.1585 -11.0146,-106.825l0 -251.837 -136.994 0 0 519.002z"
   id="glyph9892" />
   <glyph
   unicode="n"
   horiz-adv-x="610"
   d="M544.008 0l-137.014 0 0 264.492c0,56.0044 -2.99662,92.1663 -8.82788,108.506 -5.99324,16.5017 -15.4893,29.1765 -28.8323,38.3284 -13.3431,9.17208 -29.3385,13.667 -48.0066,13.667 -23.9932,0 -45.496,-6.49942 -64.488,-19.4983 -19.1743,-12.9988 -32.1732,-30.3306 -39.1788,-51.6714 -7.16759,-21.4825 -10.6501,-61.1472 -10.6501,-119.156l0 -234.668 -137.014 0 0 519.002 127.012 0 0 -76.1708c45.496,58.1708 102.654,87.1652 171.82,87.1652 30.3306,0 58.1708,-5.48705 83.3384,-16.3397 25.3295,-10.9944 44.3419,-24.8233 57.1585,-41.649 13.0191,-17.0078 22.0089,-36.1821 27.0101,-57.6647 5.16309,-21.5028 7.67377,-52.1776 7.67377,-92.1865l0 -322.157z"
   id="glyph9894" />
   <glyph
   unicode="o"
   horiz-adv-x="610"
   d="M40.0089 265.828c0,45.6782 11.1563,89.8378 33.6512,132.499 22.5151,42.8435 54.3441,75.3407 95.5071,97.8356 41.163,22.4949 87.0032,33.8334 137.824,33.8334 78.4993,0 142.684,-25.4915 192.836,-76.4948 50.1731,-51.1652 75.1787,-115.512 75.1787,-193.505 0,-78.6612 -25.3498,-143.838 -75.8468,-195.489 -50.6591,-51.6714 -114.317,-77.5071 -191.156,-77.5071 -47.5005,0 -92.8344,10.8324 -136.002,32.3351 -43.0055,21.5028 -75.8266,52.9875 -98.3417,94.6567 -22.4949,41.5072 -33.6512,92.1663 -33.6512,151.835zm140.983 -7.32957c0,-51.4892 12.1687,-90.9919 36.5061,-118.326 24.4994,-27.5162 54.5061,-41.163 90.344,-41.163 35.6557,0 65.6624,13.6468 89.8176,41.163 24.1754,27.334 36.3441,67.1607 36.3441,119.318 0,50.8413 -12.1687,89.9998 -36.3441,117.334 -24.1552,27.5162 -54.1619,41.1833 -89.8176,41.1833 -35.8379,0 -65.8446,-13.667 -90.344,-41.1833 -24.3374,-27.334 -36.5061,-66.8165 -36.5061,-118.326z"
   id="glyph9896" />
   <glyph
   unicode="p"
   horiz-adv-x="610"
   d="M67.9908 519.002l128.004 0 0 -76.1708c16.6636,25.9977 38.9965,46.9943 67.3429,63.172 28.3261,15.9955 59.8311,23.9932 94.3327,23.9932 60.1551,0 111.32,-23.6692 153.334,-70.9875 41.9932,-47.1765 62.9897,-113.183 62.9897,-197.514 0,-86.821 -21.1586,-154.164 -63.4959,-202.333 -42.3374,-48.1686 -93.6646,-72.1618 -154.002,-72.1618 -28.6704,0 -54.668,5.66928 -77.9931,17.1698 -23.1631,11.3386 -47.8447,30.8368 -73.4981,58.4948l0 -259.673 -137.014 0 0 716.01zm135.01 -251.493c0,-58.5151 11.5005,-101.683 34.6636,-129.685 23.0011,-27.82 51.1652,-41.8312 84.1685,-41.8312 31.8289,0 58.3328,12.8369 79.4914,38.5106 21.1788,25.6535 31.667,67.6669 31.667,126.162 0,54.668 -10.8324,95.1629 -32.6591,121.667 -21.6647,26.5039 -48.6748,39.6647 -80.8277,39.6647 -33.5095,0 -61.3294,-12.9988 -83.3384,-38.9965 -22.1709,-25.9977 -33.1653,-64.5083 -33.1653,-115.491z"
   id="glyph9898" />
   <glyph
   unicode="r"
   horiz-adv-x="389"
   d="M203.001 0l-136.994 0 0 519.002 126.992 0 0 -73.6601c21.8267,34.8256 41.5072,57.6647 59.001,68.497 17.4938,10.8324 37.3362,16.1574 59.5072,16.1574 31.3228,0 61.4914,-8.6659 90.4857,-25.8357l-42.4993 -119.662c-23.1631,15.0033 -44.6658,22.4949 -64.488,22.4949 -19.3363,0 -35.676,-5.32507 -48.9988,-15.8335 -13.3431,-10.6501 -23.8312,-29.6625 -31.505,-57.3205 -7.67377,-27.6782 -11.5005,-85.6668 -11.5005,-173.844l0 -159.995z"
   id="glyph9900" />
   <glyph
   unicode="t"
   horiz-adv-x="333"
   d="M308.996 519.002l0 -109.012 -93.9885 0 0 -210.148c0,-42.6816 0.830144,-67.5049 2.65241,-74.5105 1.84252,-7.00561 5.83126,-12.8369 12.3307,-17.4938 6.33744,-4.49493 14.0112,-6.84363 23.1833,-6.84363 12.8166,0 31.1608,4.33295 55.3362,13.1811l11.4803 -106.684c-31.8289,-13.667 -67.8289,-20.4904 -108.162,-20.4904 -24.6614,0 -46.8323,4.17097 -66.6545,12.4927 -19.8425,8.34194 -34.3396,19.1743 -43.5117,32.3351 -9.33406,13.3431 -15.6715,31.181 -19.3363,53.8379 -2.83464,15.9955 -4.33295,48.3306 -4.33295,97.1674l0 227.156 -62.9897 0 0 109.012 62.9897 0 0 102.999 137.014 80.9897 0 -183.988 93.9885 0z"
   id="glyph9902" />
   <glyph
   unicode="ã"
   horiz-adv-x="556"
   d="M174.006 359.007l-124.015 21.9887c14.0112,50.6793 38.1664,88.1775 72.344,112.495 34.1574,24.3374 84.9987,36.5061 152.342,36.5061 61.1472,0 106.825,-7.16759 136.832,-21.6647 29.8245,-14.4972 50.983,-32.8413 63.1517,-55.1742 12.1687,-22.3329 18.3442,-63.1517 18.3442,-122.821l-2.00449 -159.995c0,-45.5162 2.16647,-79.1674 6.49942,-100.832 4.33295,-21.685 12.4927,-44.848 24.4994,-69.5094l-136.002 0c-3.5028,9.0101 -7.99773,22.3329 -13.1608,40.0089 -2.16647,8.15971 -3.82676,13.4848 -4.83913,15.9955 -23.325,-23.0011 -48.3306,-40.1709 -74.9965,-51.6714 -26.6659,-11.5005 -54.992,-17.3318 -85.1607,-17.3318 -53.1697,0 -95.1831,14.4972 -125.838,43.4915 -30.6748,28.8323 -46.0021,65.5004 -46.0021,109.842 0,29.1563 7.00561,55.3362 20.9966,78.3373 14.0112,22.8188 33.5095,40.4948 58.839,52.6635 25.1675,12.1687 61.4914,22.8391 108.992,31.9909 64.0021,12.0067 108.506,23.3453 133.167,33.6715l0 13.829c0,26.6659 -6.49942,45.6782 -19.4983,57.1787 -13.1608,11.3183 -37.8222,16.9876 -74.0043,16.9876 -24.4994,0 -43.4915,-4.81889 -57.1585,-14.6591 -13.829,-9.65802 -24.8436,-26.8278 -33.3273,-51.3272zm183.988 -111.017c-17.4938,-5.83126 -45.334,-12.8166 -83.5004,-20.9966 -38.0044,-8.15971 -62.9897,-16.1574 -74.6523,-23.8312 -17.838,-12.8369 -26.8481,-28.8323 -26.8481,-48.3306 0,-19.3363 7.16759,-35.8379 21.5028,-49.8289 14.3352,-14.0112 32.4971,-20.9966 54.668,-20.9966 24.6614,0 48.3306,8.15971 70.8255,24.3172 16.5017,12.5129 27.5162,27.5162 32.6793,45.5162 3.5028,11.6625 5.32507,33.9954 5.32507,66.8367l0 27.3138zm-178.987 337.018l-63.01 0c-0.323959,7.49155 -0.506186,13.3228 -0.506186,17.4938 0,34.1574 8.34194,60.4993 25.0056,78.8232 16.5017,18.5061 38.0044,27.6782 64.0021,27.6782 11.5005,0 22.0089,-1.17435 31.8289,-3.66478 9.84025,-2.51068 27.6782,-9.49604 53.5139,-20.9966 25.9977,-11.5005 46.1641,-17.352 60.9852,-17.352 10.3464,0 19.0123,3.34082 25.9977,9.84025 7.16759,6.6614 11.5005,17.676 13.505,33.1653l63.01 0c-0.344206,-44.5038 -8.50392,-76.1708 -24.4994,-95.3249 -16.1777,-19.1743 -36.8503,-28.6704 -62.1798,-28.6704 -11.1563,0 -21.9887,1.17435 -32.6591,3.5028 -7.49155,2.00449 -26.1597,8.98986 -56.0044,20.8346 -30.0067,11.8245 -51.6714,17.6558 -65.3384,17.6558 -10.4882,0 -18.4859,-3.1586 -24.3172,-9.65802 -6.01348,-6.33744 -9.0101,-17.4938 -9.33406,-33.3273z"
   id="glyph9904" />
   <glyph
   unicode="ç"
   horiz-adv-x="556"
   d="M524.003 365l-135.01 -23.9932c-4.49493,26.8278 -14.8211,46.9943 -30.9988,60.6613 -16.1574,13.505 -36.992,20.3284 -62.6658,20.3284 -34.1574,0 -61.4914,-11.8245 -81.8198,-35.4937 -20.3487,-23.6692 -30.5129,-63.172 -30.5129,-118.67 0,-61.6737 10.3464,-105.165 30.9988,-130.657 20.6726,-25.5118 48.3306,-38.1664 83.0144,-38.1664 25.9977,0 47.3182,7.49155 63.8199,22.3329 16.6636,14.8211 28.3464,40.3329 35.1698,76.6567l135.01 -23.0011c-14.0112,-61.9976 -40.8391,-108.83 -80.5038,-140.497 -39.6647,-31.667 -92.8344,-47.5005 -159.671,-47.5005 -75.6646,0 -136.164,23.9932 -181.174,71.8379 -45.1518,47.9864 -67.6669,114.337 -67.6669,199.154 0,85.8491 22.6771,152.504 67.8491,200.348 45.1518,47.8244 106.319,71.6556 183.482,71.6556 63.01,0 113.183,-13.667 150.499,-40.8391 37.1743,-27.1518 63.8401,-68.497 80.1798,-124.157zm-381.502 -555.994l0 57.3205c33.6715,-3.5028 64.5083,-5.32507 92.6725,-5.32507 28.9943,0 50.6591,5.16309 64.65,15.6715 10.8526,7.83575 16.1777,17.8177 16.1777,30.3306 0,10.9944 -5.00111,20.6726 -15.1653,28.8323 -10.1642,8.15971 -25.8357,12.1687 -46.9943,12.1687 -21.0168,0 -42.3374,-3.34082 -64.3463,-9.84025l12.8369 48.4926c25.3295,9.0101 52.6635,13.3431 82.0021,13.3431 40.8391,0 71.6556,-9.0101 92.8344,-26.8278 21.1586,-18 31.8289,-39.8469 31.8289,-65.5004 0,-28.8323 -11.6625,-51.9954 -35.1698,-69.9953 -31.667,-24.5196 -77.001,-36.6681 -136.002,-36.6681 -41.9932,0 -73.8221,2.65241 -95.3249,7.99773z"
   id="glyph9906" />
  </font><font
     id="FontID1"
     horiz-adv-x="722"
     font-variant="normal"
     style="fill-rule:nonzero"
     font-style="normal"
     font-weight="400"
     horiz-origin-x="0"
     horiz-origin-y="0"
     vert-origin-x="512"
     vert-origin-y="768"
     vert-adv-y="1024">
	<font-face
   font-family="Symbol"
   id="font-face9909">
		<font-face-src>
			<font-face-name
   name="Symbol" />
		</font-face-src>
	</font-face>
   <missing-glyph
   id="missing-glyph9913"><path
     d="M0 0z"
     id="path9911" /></missing-glyph>
   <glyph
   unicode="·"
   horiz-adv-x="460"
   d="M409.009 282.843c0,-49.5027 -17.4973,-91.6869 -52.3373,-126.501 -34.84,-34.84 -76.8438,-52.3373 -126.011,-52.3373 -49.6573,0 -91.8157,17.4973 -126.656,52.3373 -34.84,34.8142 -52.3373,76.9984 -52.3373,126.501 0,48.9873 17.4973,90.9911 52.3373,125.831 34.84,34.8142 76.9984,52.3373 126.656,52.3373 49.1677,0 91.1715,-17.5231 126.011,-52.3373 34.84,-34.84 52.3373,-76.8438 52.3373,-125.831z"
   id="glyph9915" />
  </font><font
     id="FontID0"
     horiz-adv-x="667"
     font-variant="normal"
     style="fill-rule:nonzero"
     font-style="normal"
     font-weight="400"
     horiz-origin-x="0"
     horiz-origin-y="0"
     vert-origin-x="512"
     vert-origin-y="768"
     vert-adv-y="1024">
	<font-face
   font-family="Arial"
   id="font-face9918">
		<font-face-src>
			<font-face-name
   name="Arial" />
		</font-face-src>
	</font-face>
   <missing-glyph
   id="missing-glyph9922"><path
     d="M0 0z"
     id="path9920" /></missing-glyph>
   <glyph
   unicode="("
   horiz-adv-x="332"
   d="M234.01 -209.993c-48.343,61.1503 -89.3419,132.66 -122.842,214.658 -33.5,81.9976 -50.1727,167.01 -50.1727,254.832 0,77.5138 12.4981,151.678 37.4942,222.491 29.3511,82.3584 74.4988,164.356 135.52,246.019l62.98 0c-39.3238,-67.6699 -65.4796,-116.013 -78.158,-145.003 -19.8423,-44.8384 -35.51,-91.6611 -46.8227,-140.494 -14.0185,-60.8411 -21.0019,-122.017 -21.0019,-183.503 0,-156.496 48.6523,-312.838 145.983,-469l-62.98 0z"
   id="glyph9924" />
   <glyph
   unicode=")"
   horiz-adv-x="332"
   d="M124.001 -209.993l-63.0057 0c97.3303,156.161 146.008,312.503 146.008,469 0,61.1503 -7.00923,121.837 -21.0019,181.982 -11.0035,48.8327 -26.4907,95.6811 -46.333,140.674 -12.6785,29.1707 -39.0146,78.0034 -78.6734,146.343l63.0057 0c60.9957,-81.6626 106.169,-163.66 135.495,-246.019 24.9961,-70.8138 37.4942,-144.978 37.4942,-222.491 0,-87.8215 -16.8273,-172.834 -50.4819,-254.832 -33.5,-81.9976 -74.3442,-153.507 -122.507,-214.658z"
   id="glyph9926" />
   <glyph
   unicode="."
   horiz-adv-x="277"
   d="M90.9911 0l0 100.01 100.01 0 0 -100.01 -100.01 0z"
   id="glyph9928" />
   <glyph
   unicode=";"
   horiz-adv-x="277"
   d="M89.0069 419.007l0 99.9845 99.9845 0 0 -99.9845 -99.9845 0zm0 -419.007l0 100.01 99.9845 0 0 -100.01c0,-36.8242 -6.49384,-66.6649 -19.6619,-89.3419 -12.9877,-22.6511 -33.835,-40.3288 -62.3357,-52.6465l-23.9911 37.6488c18.6569,8.16884 32.3404,20.1773 40.9988,35.9996 8.83884,15.8481 13.8381,38.6796 14.8431,68.3399l-49.8377 0z"
   id="glyph9930" />
   <glyph
   unicode="A"
   horiz-adv-x="667"
   d="M-1.49461 0l274.674 715.998 104.159 0 291.501 -715.998 -107.844 0 -82.8222 217.003 -301.5 0 -77.6684 -217.003 -100.5 0zm205.999 294.001l243.983 0 -74.6534 198.5c-22.4965,60.3257 -39.5042,110.163 -51.3323,149.487 -9.84384,-46.6423 -23.0119,-92.4857 -39.5042,-137.814l-78.493 -210.174z"
   id="glyph9932" />
   <glyph
   unicode="B"
   horiz-adv-x="667"
   d="M73.0042 0l0 715.998 268.67 0c54.6565,0 98.4899,-7.16384 131.655,-21.6719 33.0104,-14.4823 58.8311,-36.8242 77.5138,-66.9999 18.8115,-29.9954 28.1657,-61.4853 28.1657,-94.4957 0,-30.485 -8.34922,-59.3207 -24.8415,-86.3269 -16.4923,-27.0061 -41.4884,-48.8327 -74.9884,-65.5053 43.318,-12.6527 76.6634,-34.3246 99.8299,-64.99 23.3211,-30.5107 34.9946,-66.6649 34.9946,-108.334 0,-33.6804 -7.16384,-64.8353 -21.3369,-93.6711 -14.1731,-28.8357 -31.6704,-50.9973 -52.4919,-66.6649 -20.8473,-15.5131 -47.003,-27.3411 -78.3384,-35.3296 -31.49,-8.01422 -70.0149,-12.0085 -115.678,-12.0085l-273.154 0zm94.9853 414.987l154.847 0c42.0038,0 72.1538,2.83461 90.3211,8.34922 24.1715,7.16384 42.3388,19.1723 54.5019,35.8192 12.1631,16.6727 18.3477,37.52 18.3477,62.6707 0,23.8365 -5.66923,44.8384 -17.1623,62.8511 -11.3385,18.1673 -27.6761,30.6654 -48.8327,37.3138 -21.1823,6.67423 -57.5169,9.99845 -108.849,9.99845l-143.174 0 0 -217.003zm0 -330.98l178.349 0c30.6654,0 52.1569,1.15961 64.655,3.50461 21.6719,3.81384 40.0196,10.3335 54.6823,19.4815 14.6627,9.17384 26.6454,22.4965 36.1542,39.9938 9.50884,17.5231 14.1731,37.6746 14.1731,60.5061 0,26.8515 -6.82884,50.018 -20.6669,69.8346 -13.6577,19.8423 -32.6754,33.6804 -57.0015,41.6688 -24.1715,8.01422 -59.1661,12.0085 -104.675,12.0085l-165.67 0 0 -246.998z"
   id="glyph9934" />
   <glyph
   unicode="E"
   horiz-adv-x="667"
   d="M79.0084 0l0 715.998 516.982 0 0 -84.0076 -421.997 0 0 -219.992 395.016 0 0 -84.0076 -395.016 0 0 -243.983 439.004 0 0 -84.0076 -533.99 0z"
   id="glyph9936" />
   <glyph
   unicode="G"
   horiz-adv-x="777"
   d="M411.998 280.987l0 84.0076 302.994 0 0 -265.32c-46.4877,-37.0046 -94.4957,-65.0157 -143.998,-83.6726 -49.5027,-18.6569 -100.32,-28.0111 -152.322,-28.0111 -70.3499,0 -134.18,14.9977 -191.671,45.1734 -57.3365,29.9954 -100.835,73.6742 -130.006,130.495 -29.3254,57.0015 -43.988,120.677 -43.988,190.847 0,69.6542 14.4823,134.67 43.653,195.15 29.1707,60.3515 70.9942,105.164 125.676,134.335 54.6565,29.3511 117.662,44.0138 188.991,44.0138 51.6673,0 98.5157,-8.34922 140.339,-25.1765 41.8234,-16.8273 74.6534,-40.1742 98.3353,-69.9892 23.8365,-29.9954 41.8234,-69.1646 54.1669,-117.353l-85.5022 -23.3211c-10.8231,36.3346 -24.1715,64.99 -39.9938,85.9919 -16.0027,20.8473 -38.6796,37.52 -68.3399,50.018 -29.5057,12.4981 -62.3357,18.8115 -98.4899,18.8115 -43.1892,0 -80.503,-6.64846 -112.173,-19.8165 -31.5157,-13.1681 -56.8469,-30.5107 -76.3284,-52.1827 -19.3527,-21.4915 -34.3504,-45.1477 -45.0188,-70.8138 -18.1673,-44.5034 -27.3154,-92.5115 -27.3154,-144.333 0,-64.0107 11.0035,-117.508 32.83,-160.671 22.0069,-43.0088 53.9865,-75.0142 95.8357,-95.8357 42.0038,-20.8473 86.4815,-31.3354 133.665,-31.3354 40.9988,0 80.9926,7.98846 120.007,23.8365 38.9888,16.0027 68.4946,32.83 88.6461,50.9973l0 134.155 -209.993 0z"
   id="glyph9938" />
   <glyph
   unicode="M"
   horiz-adv-x="832"
   d="M74.9884 0l0 715.998 142.014 0 169.329 -506.829c15.6677,-47.1577 27.0061,-82.513 34.17,-106.015 8.16884,26.0011 21.0019,64.3457 38.3188,114.853l172.344 497.99 126.836 0 0 -715.998 -90.9911 0 0 599.005 -209.014 -599.005 -85.3219 0 -206.669 610.009 0 -610.009 -91.0169 0z"
   id="glyph9940" />
   <glyph
   unicode="P"
   horiz-adv-x="667"
   d="M76.9984 0l0 715.998 270.345 0c47.4927,0 83.8272,-2.31923 108.978,-6.82884 35.175,-5.82384 64.6807,-17.0077 88.5172,-33.3454 23.8365,-16.4923 42.983,-39.4784 57.4911,-68.9842 14.5081,-29.5057 21.6719,-62.0007 21.6719,-97.5107 0,-60.6607 -19.3269,-112.173 -58.1611,-154.151 -38.6796,-42.1842 -108.849,-63.1861 -210.174,-63.1861l-183.657 0 0 -291.991 -95.0111 0zm95.0111 375.999l184.997 0c61.3307,0 104.649,11.3385 130.495,34.17 25.6661,22.8315 38.4992,54.8369 38.4992,96.3253 0,29.8407 -7.49884,55.5069 -22.6769,76.8438 -15.1523,21.3369 -35.1492,35.4842 -59.8361,42.3388 -15.9769,4.14884 -45.4827,6.31346 -88.3111,6.31346l-183.168 0 0 -255.991z"
   id="glyph9942" />
   <glyph
   unicode="R"
   horiz-adv-x="722"
   d="M79.0084 0l0 715.998 317.322 0c63.8303,0 112.328,-6.49384 145.493,-19.3269 33.165,-12.8331 59.6815,-35.51 79.498,-68.0049 19.8423,-32.495 29.6861,-68.4946 29.6861,-107.844 0,-50.8169 -16.5181,-93.6453 -49.348,-128.485 -32.83,-34.84 -83.4922,-56.8469 -152.167,-66.3299 25.1765,-12.0085 44.1684,-24.0169 57.1819,-35.6646 27.6504,-25.3311 53.8319,-57.1819 78.3384,-95.3461l123.821 -194.996 -118.332 0 -94.6761 148.998c-27.4957,43.1634 -50.3273,75.9934 -68.1596,98.8249 -17.9869,22.8315 -33.9896,38.6796 -48.1627,47.8534 -13.9927,8.99345 -28.5007,15.3327 -43.1634,18.9919 -10.6685,2.16461 -28.1657,3.32423 -52.6723,3.32423l-109.674 0 0 -317.992 -94.9853 0zm94.9853 399.99l203.345 0c43.318,0 76.9984,4.50961 101.325,13.5031 24.3261,8.83884 42.8284,23.1665 55.3265,43.0088 12.6785,19.6619 19.0177,40.9988 19.0177,64.1653 0,33.835 -12.1631,61.8203 -36.6696,83.6726 -24.5065,21.8265 -63.1603,32.6496 -116.013,32.6496l-226.331 0 0 -236.999z"
   id="glyph9944" />
   <glyph
   unicode="a"
   horiz-adv-x="556"
   d="M404.989 64.99c-32.6496,-27.8307 -64.1653,-47.3123 -94.3153,-58.8311 -30.1757,-11.4931 -62.5161,-17.1623 -97.1757,-17.1623 -57.0015,0 -100.835,13.8381 -131.5,41.6688 -30.6654,27.6761 -45.998,63.1603 -45.998,106.324 0,25.3569 5.82384,48.5234 17.3427,69.4996 11.6477,21.0019 26.8257,37.6746 45.4827,50.353 18.8373,12.6527 39.8392,22.3161 63.3407,28.8357 17.3427,4.48384 43.4984,8.81307 78.3384,13.1681 70.9942,8.32346 123.486,18.4765 156.986,30.15 0.335,12.0085 0.515384,19.6619 0.515384,22.8315 0,35.6646 -8.34922,60.8411 -24.9961,75.5038 -22.4965,19.8423 -55.9965,29.6604 -100.345,29.6604 -41.4884,0 -72.1538,-7.31846 -91.8415,-21.8265 -19.8165,-14.5081 -34.3246,-40.1742 -43.8334,-77.153l-85.9919 11.9827c7.83384,36.85 20.6669,66.6649 38.6796,89.3419 17.9869,22.6511 43.988,39.9938 77.9776,52.3373 33.835,12.1631 73.3392,18.3219 118.023,18.3219 44.323,0 80.4772,-5.15384 108.334,-15.6677 27.6504,-10.4881 48.1627,-23.5015 61.1503,-39.3238 13.0135,-15.8481 22.1615,-35.845 27.4957,-60.0165 2.83461,-14.9977 4.355,-41.978 4.355,-80.8122l0 -116.683c0,-81.4822 1.82961,-132.995 5.48884,-154.821 3.50461,-21.8265 10.8231,-42.6738 21.4915,-62.6707l-91.9961 0c-8.83884,18.5023 -14.5081,40.1742 -17.0077,64.99zm-6.98346 195.021c-32.0054,-13.0135 -80.0134,-24.0169 -143.998,-33.0104 -36.3346,-5.17961 -62.0007,-11.0035 -76.9984,-17.4973 -14.9977,-6.49384 -26.5165,-16.0027 -34.6854,-28.3461 -8.16884,-12.4981 -12.3177,-26.3361 -12.3177,-41.6688 0,-23.1665 8.83884,-42.648 26.6711,-58.1611 17.8323,-15.4873 43.8334,-23.3211 77.9776,-23.3211 33.835,0 64.0107,7.31846 90.5015,22.1615 26.3361,14.6627 45.8434,34.84 58.1869,60.3257 9.48307,19.8423 14.1473,49.013 14.1473,87.5122l0.515384 32.0054z"
   id="glyph9946" />
   <glyph
   unicode="c"
   horiz-adv-x="500"
   d="M404.989 189.996l86.0176 -12.0085c-9.50884,-59.1661 -33.5,-105.319 -72.3342,-138.819 -38.8342,-33.5 -86.6619,-50.1727 -143.174,-50.1727 -70.8396,0 -127.841,23.1665 -170.824,69.4996 -43.1634,46.333 -64.6807,112.663 -64.6807,199.016 0,55.9965 9.32845,104.829 27.8307,146.833 18.5023,41.8234 46.668,73.3134 84.6776,94.1607 37.8292,21.0019 79.0084,31.49 123.666,31.49 56.1769,0 102.33,-14.1731 137.994,-42.6738 35.845,-28.5007 58.8311,-68.9842 68.8296,-121.321l-84.9869 -12.9877c-8.16884,34.8142 -22.4965,60.9957 -43.3438,78.6476 -20.6669,17.4973 -45.663,26.3361 -74.9884,26.3361 -44.3488,0 -80.3484,-15.8223 -108.179,-47.4927 -27.6504,-31.825 -41.4884,-81.843 -41.4884,-150.492 0,-69.6799 13.3227,-120.188 39.9938,-151.678 26.8257,-31.49 61.6657,-47.338 104.494,-47.338 34.6854,0 63.4953,10.5138 86.5072,31.6704 23.1665,21.0019 37.8292,53.4969 43.988,97.3303z"
   id="glyph9948" />
   <glyph
   unicode="d"
   horiz-adv-x="556"
   d="M400.995 0l0 65.8403c-32.83,-51.1777 -81.173,-76.8438 -145.003,-76.8438 -41.3338,0 -79.3176,11.3385 -113.823,34.17 -34.6596,22.6769 -61.5111,54.5019 -80.6576,95.1657 -19.0177,40.8442 -28.5007,87.6669 -28.5007,140.674 0,51.6673 8.65845,98.4899 25.8207,140.648 17.3427,42.0038 43.1634,74.3442 77.6684,96.6861 34.3246,22.4965 73.0042,33.6546 115.498,33.6546 31.3354,0 59.1661,-6.67423 83.4922,-19.8165 24.3519,-13.1681 44.1684,-30.5107 59.5011,-51.6673l0 257.486 88.0019 0 0 -715.998 -81.9976 0zm-277.998 258.826c0,-66.3299 13.9927,-115.833 42.1584,-148.663 28.0111,-32.83 61.1761,-49.1677 99.3403,-49.1677 38.4992,0 71.1746,15.6677 98.1807,47.003 26.8257,31.3354 40.3288,79.163 40.3288,143.509 0,70.6592 -13.6835,122.661 -41.1792,155.826 -27.3154,33.165 -61.1503,49.6573 -101.325,49.6573 -39.1692,0 -71.8446,-15.8223 -98.1549,-47.6473 -26.1815,-31.8507 -39.3496,-82.0234 -39.3496,-150.518z"
   id="glyph9950" />
   <glyph
   unicode="e"
   horiz-adv-x="556"
   d="M420.012 167.989l90.9911 -11.9827c-14.1731,-52.8527 -40.6638,-94.0061 -79.3434,-123.177 -38.6538,-29.1707 -88.0019,-43.8334 -148.147,-43.8334 -75.6842,0 -135.675,23.3469 -180.024,70.0149 -44.323,46.4877 -66.4846,111.993 -66.4846,196.155 0,86.9969 22.3161,154.667 67.1546,202.675 44.8384,48.1627 103,72.1538 174.509,72.1538 69.1646,0 125.676,-23.5015 169.51,-70.6592 43.8334,-47.1577 65.8146,-113.513 65.8146,-199.016 0,-5.15384 -0.154615,-12.9877 -0.489615,-23.3211l-386.512 0c3.35,-56.8211 19.3527,-100.5 48.343,-130.676 28.8357,-30.15 64.99,-45.328 108.179,-45.328 32.16,0 59.6557,8.50384 82.3326,25.5115 22.8315,16.9819 40.8184,44.1684 54.1669,81.4822zm-288.022 141.009l289.002 0c-3.81384,43.6788 -14.9977,76.3284 -33.165,98.1807 -27.8307,33.8092 -64.1653,50.8169 -108.669,50.8169 -40.3288,0 -74.1638,-13.5031 -101.66,-40.4834 -27.3411,-27.0061 -42.4934,-63.1861 -45.5084,-108.514z"
   id="glyph9952" />
   <glyph
   unicode="f"
   horiz-adv-x="277"
   d="M86.9969 0l0 451.013 -78.0034 0 0 67.9792 78.0034 0 0 55.0173c0,34.8142 3.015,60.6607 9.17384,77.488 8.50384,22.6769 23.1665,41.1792 44.5034,55.3265 21.1565,14.1731 50.9973,21.1823 89.3161,21.1823 24.8415,0 52.1827,-3.015 82.178,-8.83884l-13.1681 -76.9984c-18.3219,3.16961 -35.51,4.81884 -51.8219,4.81884 -26.6711,0 -45.5084,-5.64346 -56.6665,-16.9819 -11.0035,-11.3385 -16.5181,-32.495 -16.5181,-63.4953l0 -47.5184 101.015 0 0 -67.9792 -100.01 0 0 -451.013 -88.0019 0z"
   id="glyph9954" />
   <glyph
   unicode="g"
   horiz-adv-x="556"
   d="M49.8377 -43.0088l84.9869 -11.9827c3.50461,-26.3361 13.5031,-45.5084 29.8407,-57.6715 21.8265,-16.1831 51.6673,-24.3261 89.4965,-24.3261 40.6638,0 72.1796,8.14307 94.3411,24.3261 22.1615,16.1573 37.1592,38.9888 44.993,68.1596 4.50961,17.8323 6.67423,55.3265 6.33923,112.508 -38.4992,-45.328 -86.3269,-68.0049 -143.663,-68.0049 -71.3292,0 -126.681,25.6661 -165.67,77.1788 -39.1692,51.3323 -58.6765,112.998 -58.6765,184.817 0,49.5027 9.01922,95.1657 26.8515,137.015 17.8323,41.8234 43.8334,73.9834 77.823,96.8149 33.9896,22.8315 74.0092,34.17 120.007,34.17 61.1503,0 111.658,-24.9961 151.317,-74.9884l0 63.985 81.0184 0 0 -448.152c0,-80.838 -8.16884,-137.994 -24.6869,-171.674 -16.3119,-33.6546 -42.4934,-60.3257 -77.9776,-79.833 -35.6646,-19.5073 -79.498,-29.3254 -131.5,-29.3254 -61.8461,0 -111.684,13.8381 -149.668,41.6688 -38.1642,27.6504 -56.5119,69.4996 -55.1719,125.316zm71.9992 311.344c0,-67.8246 13.5031,-117.327 40.5092,-148.508 27.1607,-31.155 60.9957,-46.8227 101.66,-46.8227 40.4834,0 74.3184,15.4873 101.84,46.4877 27.3154,31.0004 40.9988,79.6784 40.9988,146.008 0,63.3407 -14.1731,111.168 -42.3388,143.328 -28.1657,32.16 -62.1811,48.1627 -101.84,48.1627 -39.1692,0 -72.3342,-15.8223 -99.8299,-47.4927 -27.3411,-31.6704 -40.9988,-78.6734 -40.9988,-141.164z"
   id="glyph9956" />
   <glyph
   unicode="h"
   horiz-adv-x="556"
   d="M65.9949 0l0 715.998 88.0019 0 0 -257.666c40.8442,47.8277 92.3311,71.6642 154.667,71.6642 38.1642,0 71.3292,-7.49884 99.6753,-22.6511 28.1657,-15.1781 48.3173,-35.9996 60.5061,-62.6707 12.1631,-26.6711 18.1673,-65.5053 18.1673,-116.168l0 -328.506 -88.0019 0 0 328.171c0,43.8334 -9.50884,75.8388 -28.3461,95.8357 -18.9919,19.9969 -45.663,29.9954 -80.3226,29.9954 -25.8465,0 -50.1727,-6.67423 -73.0042,-20.1773 -22.8315,-13.5031 -39.0146,-31.825 -48.8327,-54.9915 -9.66345,-23.0119 -14.5081,-54.8369 -14.5081,-95.5007l0 -283.332 -88.0019 0z"
   id="glyph9958" />
   <glyph
   unicode="i"
   horiz-adv-x="222"
   d="M65.9949 615.987l0 100.01 88.0019 0 0 -100.01 -88.0019 0zm0 -615.987l0 518.992 88.0019 0 0 -518.992 -88.0019 0z"
   id="glyph9960" />
   <glyph
   unicode="l"
   horiz-adv-x="222"
   d="M64.0107 0l0 715.998 88.0019 0 0 -715.998 -88.0019 0z"
   id="glyph9962" />
   <glyph
   unicode="m"
   horiz-adv-x="832"
   d="M65.9949 0l0 518.992 79.0084 0 0 -73.3134c16.1573,25.3311 37.8292,45.8177 64.8353,61.1503 27.0061,15.5131 57.6715,23.1665 92.1507,23.1665 38.3446,0 69.8346,-7.98846 94.3411,-23.8365 24.5065,-16.0027 41.8234,-38.1642 51.8477,-66.8196 41.3338,60.5061 94.8307,90.6561 160.826,90.6561 51.6673,0 91.5065,-14.1731 119.157,-42.6738 27.8307,-28.5007 41.8492,-72.3342 41.8492,-131.5l0 -355.821 -88.0019 0 0 326.676c0,34.9946 -3.015,60.3257 -8.68422,75.813 -5.66923,15.5131 -16.0027,27.8565 -31.155,37.3396 -14.9977,9.50884 -32.6754,14.1731 -52.8269,14.1731 -36.6696,0 -66.9999,-12.1631 -91.1715,-36.3346 -24.1715,-24.3261 -36.18,-63.1603 -36.18,-116.503l0 -301.165 -88.0019 0 0 336.829c0,39.0146 -7.16384,68.3399 -21.4915,87.8472 -14.3277,19.4815 -37.8292,29.3254 -70.3242,29.3254 -24.6611,0 -47.5184,-6.49384 -68.4946,-19.5073 -21.0019,-12.9877 -36.18,-32.0054 -45.6888,-57.1561 -9.32845,-24.9961 -13.9927,-61.1761 -13.9927,-108.334l0 -269.005 -88.0019 0z"
   id="glyph9964" />
   <glyph
   unicode="n"
   horiz-adv-x="556"
   d="M65.9949 0l0 518.992 79.0084 0 0 -73.6484c37.9838,56.4861 93.0011,84.6519 164.82,84.6519 31.3354,0 60.0165,-5.66923 86.1722,-16.8273 26.1815,-11.1581 45.8434,-26.0011 58.8311,-44.1684 13.0135,-18.1673 22.1615,-39.8392 27.3411,-64.8353 3.16961,-16.3377 4.84461,-44.8384 4.84461,-85.5022l0 -318.662 -88.0019 0 0 315.338c0,35.8192 -3.35,62.6707 -10.1788,80.3226 -6.82884,17.6777 -18.9919,31.8507 -36.3346,42.4934 -17.3427,10.5138 -37.8292,15.8481 -61.1761,15.8481 -37.3138,0 -69.4996,-11.8281 -96.6603,-35.6646 -27.1607,-23.6819 -40.6638,-68.8296 -40.6638,-135.16l0 -283.178 -88.0019 0z"
   id="glyph9966" />
   <glyph
   unicode="o"
   horiz-adv-x="556"
   d="M33.0104 259.496c0,95.8357 26.6454,166.83 80.168,213.008 44.4777,38.3188 98.9795,57.4911 163.145,57.4911 71.1746,0 129.516,-23.3211 174.844,-69.9892 45.1734,-46.5134 67.8246,-111.014 67.8246,-193.166 0,-66.6649 -9.99845,-119.002 -29.9954,-157.166 -19.9969,-38.1642 -49.1677,-67.8503 -87.4865,-89.0069 -38.1642,-21.1565 -80.0134,-31.6704 -125.187,-31.6704 -72.6692,0 -131.32,23.1665 -176.158,69.6799 -44.8384,46.4877 -67.1546,113.488 -67.1546,200.819zm89.9861 -0.154615c0,-66.3299 14.5081,-116.013 43.4984,-148.843 29.1707,-33.0104 65.6599,-49.5027 109.828,-49.5027 43.6788,0 80.0134,16.4923 109.184,49.683 28.9904,33.165 43.4984,83.6469 43.4984,151.497 0,63.985 -14.6627,112.483 -43.8334,145.313 -29.1707,33.0104 -65.5053,49.5027 -108.849,49.5027 -44.1684,0 -80.6576,-16.3119 -109.828,-49.1677 -28.9904,-32.83 -43.4984,-82.3326 -43.4984,-148.482z"
   id="glyph9968" />
   <glyph
   unicode="p"
   horiz-adv-x="556"
   d="M65.9949 -198.99l0 717.982 80.0134 0 0 -68.1596c18.8373,26.3361 40.1484,46.1784 63.985,59.3465 23.6819,13.1423 52.5177,19.8165 86.3526,19.8165 44.323,0 83.3119,-11.3385 117.147,-34.17 33.835,-22.6511 59.3465,-54.8369 76.6634,-96.1707 17.1881,-41.4884 25.8465,-86.8165 25.8465,-136.319 0,-52.8269 -9.50884,-100.5 -28.5007,-142.993 -18.9919,-42.3388 -46.668,-74.8338 -83.0026,-97.5107 -36.1542,-22.4965 -74.3442,-33.835 -114.338,-33.835 -29.3254,0 -55.6615,6.15884 -78.828,18.5023 -23.3211,12.3435 -42.3388,27.8307 -57.3365,46.668l0 -253.157 -88.0019 0zm80.0134 455.316c0,-66.4846 13.5031,-115.652 40.3288,-147.503 27.0061,-31.825 59.6557,-47.8277 98.0003,-47.8277 38.9888,0 72.3342,16.4923 99.9845,49.5027 27.8565,33.0104 41.6688,84.0076 41.6688,153.172 0,65.9949 -13.5031,115.317 -40.6638,148.173 -27.1607,32.83 -59.5011,49.1677 -97.1499,49.1677 -37.3396,0 -70.3499,-17.5231 -99.0053,-52.3373 -28.8357,-34.9946 -43.1634,-85.6826 -43.1634,-152.348z"
   id="glyph9970" />
   <glyph
   unicode="q"
   horiz-adv-x="556"
   d="M396.511 -198.99l0 254.651c-13.6835,-19.1723 -32.8557,-34.9946 -57.3365,-47.673 -24.5065,-12.6527 -50.6623,-18.9919 -78.3384,-18.9919 -61.5111,0 -114.338,24.5065 -158.841,73.6742 -44.323,48.9873 -66.4846,116.322 -66.4846,201.67 0,52.0023 8.99345,98.6703 26.9804,140.004 18.1673,41.1534 44.3488,72.4888 78.6734,93.6453 34.3246,21.3369 71.9992,32.0054 112.998,32.0054 64.1653,0 114.493,-26.8257 151.343,-80.6576l0 69.6542 79.0084 0 0 -717.982 -88.0019 0zm-271.015 459.98c0,-66.6649 13.9927,-116.657 42.0038,-150.003 28.0111,-33.3196 61.5111,-49.9923 100.655,-49.9923 37.52,0 69.6799,15.8481 96.8407,47.4927 27.0061,31.8507 40.5092,80.0134 40.5092,144.668 0,69.0099 -14.3277,120.832 -42.8284,155.672 -28.5007,34.84 -61.8461,52.1827 -100.345,52.1827 -38.1642,0 -70.5046,-16.1831 -96.9953,-48.5234 -26.4907,-32.3146 -39.8392,-82.8222 -39.8392,-151.497z"
   id="glyph9972" />
   <glyph
   unicode="r"
   horiz-adv-x="332"
   d="M64.99 0l0 518.992 79.0084 0 0 -79.498c20.1773,36.85 38.8342,61.1761 55.9965,72.8496 17.1623,11.8281 35.9996,17.6519 56.5119,17.6519 29.6604,0 59.8361,-9.32845 90.5015,-27.8307l-31.3354 -81.173c-21.3369,12.0085 -42.6738,18.0127 -64.0107,18.0127 -19.1723,0 -36.3346,-5.84961 -51.4869,-17.3427 -15.1781,-11.4931 -26.0011,-27.4957 -32.5207,-47.9823 -9.81807,-31.1807 -14.6627,-65.3507 -14.6627,-102.51l0 -271.169 -88.0019 0z"
   id="glyph9974" />
   <glyph
   unicode="s"
   horiz-adv-x="500"
   d="M31.0004 155.002l86.9969 13.9927c4.84461,-34.84 18.5023,-61.4853 40.8442,-80.168 22.3161,-18.5023 53.6515,-27.8307 93.6711,-27.8307 40.4834,0 70.4788,8.16884 90.1665,24.6611 19.4815,16.3377 29.3254,35.6646 29.3254,57.8519 0,19.8165 -8.83884,35.4842 -26.3361,46.8227 -12.3435,7.83384 -42.3388,17.6777 -90.0119,29.8407 -64.32,16.1573 -108.823,30.15 -133.82,42.0038 -24.8415,11.9827 -43.6788,28.3204 -56.5119,49.3223 -12.8331,20.8473 -19.3269,44.0138 -19.3269,69.3449 0,23.1665 5.33423,44.4777 15.8481,64.1653 10.6427,19.6619 24.9961,35.9996 43.1634,48.9873 13.6577,9.99845 32.3146,18.5023 55.8161,25.5115 23.6819,6.98346 48.8327,10.4881 75.8388,10.4881 40.6638,0 76.3284,-5.82384 106.994,-17.6519 30.8457,-11.6735 53.4969,-27.6761 68.1853,-47.673 14.4823,-20.1773 24.6611,-47.003 30.15,-80.6576l-85.9919 -12.0085c-3.83961,27.0061 -15.1781,48.1627 -33.835,63.3407 -18.6569,15.1523 -44.993,22.6511 -79.163,22.6511 -40.1742,0 -69.0099,-6.67423 -86.1722,-19.9969 -17.1623,-13.3227 -25.8207,-28.9904 -25.8207,-46.8227 0,-11.3385 3.47884,-21.6719 10.6685,-30.8457 7.16384,-9.32845 18.3219,-17.1623 33.6546,-23.3211 8.83884,-3.35 34.505,-10.8488 77.488,-22.5223 62.0007,-16.4923 105.345,-30.15 130.006,-40.6638 24.6611,-10.4881 44.0138,-26.0011 58.0065,-45.998 14.1731,-20.1515 21.1565,-45.1477 21.1565,-75.1688 0,-29.145 -8.47807,-56.6665 -25.6661,-82.4872 -17.1623,-25.8465 -41.8234,-45.8434 -73.9834,-59.9907 -32.3404,-14.1731 -68.8296,-21.1823 -109.519,-21.1823 -67.3092,0 -118.822,13.9927 -154.151,41.8492 -35.3296,27.9854 -57.8261,69.3192 -67.6699,124.156z"
   id="glyph9976" />
   <glyph
   unicode="t"
   horiz-adv-x="277"
   d="M256.996 78.493l12.0085 -77.6684c-24.6611,-5.15384 -46.8484,-7.83384 -66.1753,-7.83384 -31.825,0 -56.4861,4.99923 -74.1638,15.1781 -17.4973,10.1531 -29.8407,23.3211 -37.0046,39.8392 -7.16384,16.4923 -10.6685,51.1519 -10.6685,104.005l0 299 -64.99 0 0 67.9792 64.99 0 0 128.331 88.0019 52.8527 0 -181.183 88.0019 0 0 -67.9792 -88.0019 0 0 -304.025c0,-25.1507 1.49461,-41.308 4.66423,-48.4977 3.015,-7.16384 8.01422,-12.8331 14.9977,-17.1623 7.00923,-4.14884 17.0077,-6.33923 30.0211,-6.33923 9.66345,0 22.4965,1.18538 38.3188,3.50461z"
   id="glyph9978" />
   <glyph
   unicode="u"
   horiz-adv-x="556"
   d="M404.989 0l0 77.1788c-40.3288,-58.8569 -94.9853,-88.1822 -164.15,-88.1822 -30.5107,0 -59.0115,5.84961 -85.5022,17.4973 -26.4907,11.8281 -46.1784,26.5165 -59.0115,44.1684 -12.8331,17.8323 -21.8265,39.5042 -26.9804,65.1703 -3.50461,17.3427 -5.33423,44.658 -5.33423,81.9976l0 321.162 88.0019 0 0 -287.146c0,-45.8434 1.82961,-76.8438 5.30846,-92.6661 5.51461,-23.1923 17.1881,-41.1792 35.175,-54.3473 17.8323,-13.1681 39.8392,-19.8423 66.1753,-19.8423 26.3361,0 50.9973,6.67423 73.9834,20.1773 23.0119,13.5031 39.3496,32.0054 49.013,55.1719 9.50884,23.1665 14.3277,57.0015 14.3277,101.17l0 277.483 88.0019 0 0 -518.992 -79.0084 0z"
   id="glyph9980" />
   <glyph
   unicode="v"
   horiz-adv-x="500"
   d="M207.829 0l-195.82 518.992 94.1607 0 110.988 -310.828c12.0085,-33.5 23.1665,-68.3399 33.3454,-104.494 7.83384,27.3411 18.6569,60.1711 32.83,98.6703l115.343 316.652 90.3211 0 -196.49 -518.992 -84.6776 0z"
   id="glyph9982" />
   <glyph
   unicode="z"
   horiz-adv-x="500"
   d="M19.5073 0l0 71.6642 328.661 379.349c-37.3396,-2.01 -70.1696,-3.015 -98.4899,-3.015l-210.174 0 0 70.9942 423.002 0 0 -57.8261 -281.348 -328.996 -53.8319 -61.1761c39.5042,3.35 76.5088,4.99923 111.014,4.99923l240.169 0 0 -75.9934 -459.001 0z"
   id="glyph9984" />
   <glyph
   unicode="à"
   horiz-adv-x="556"
   d="M404.989 64.99c-32.6496,-27.8307 -64.1653,-47.3123 -94.3153,-58.8311 -30.1757,-11.4931 -62.5161,-17.1623 -97.1757,-17.1623 -57.0015,0 -100.835,13.8381 -131.5,41.6688 -30.6654,27.6761 -45.998,63.1603 -45.998,106.324 0,25.3569 5.82384,48.5234 17.3427,69.4996 11.6477,21.0019 26.8257,37.6746 45.4827,50.353 18.8373,12.6527 39.8392,22.3161 63.3407,28.8357 17.3427,4.48384 43.4984,8.81307 78.3384,13.1681 70.9942,8.32346 123.486,18.4765 156.986,30.15 0.335,12.0085 0.515384,19.6619 0.515384,22.8315 0,35.6646 -8.34922,60.8411 -24.9961,75.5038 -22.4965,19.8423 -55.9965,29.6604 -100.345,29.6604 -41.4884,0 -72.1538,-7.31846 -91.8415,-21.8265 -19.8165,-14.5081 -34.3246,-40.1742 -43.8334,-77.153l-85.9919 11.9827c7.83384,36.85 20.6669,66.6649 38.6796,89.3419 17.9869,22.6511 43.988,39.9938 77.9776,52.3373 33.835,12.1631 73.3392,18.3219 118.023,18.3219 44.323,0 80.4772,-5.15384 108.334,-15.6677 27.6504,-10.4881 48.1627,-23.5015 61.1503,-39.3238 13.0135,-15.8481 22.1615,-35.845 27.4957,-60.0165 2.83461,-14.9977 4.355,-41.978 4.355,-80.8122l0 -116.683c0,-81.4822 1.82961,-132.995 5.48884,-154.821 3.50461,-21.8265 10.8231,-42.6738 21.4915,-62.6707l-91.9961 0c-8.83884,18.5023 -14.5081,40.1742 -17.0077,64.99zm-6.98346 195.021c-32.0054,-13.0135 -80.0134,-24.0169 -143.998,-33.0104 -36.3346,-5.17961 -62.0007,-11.0035 -76.9984,-17.4973 -14.9977,-6.49384 -26.5165,-16.0027 -34.6854,-28.3461 -8.16884,-12.4981 -12.3177,-26.3361 -12.3177,-41.6688 0,-23.1665 8.83884,-42.648 26.6711,-58.1611 17.8323,-15.4873 43.8334,-23.3211 77.9776,-23.3211 33.835,0 64.0107,7.31846 90.5015,22.1615 26.3361,14.6627 45.8434,34.84 58.1869,60.3257 9.48307,19.8423 14.1473,49.013 14.1473,87.5122l0.515384 32.0054zm-35.9996 322.991l-70.9942 0 -113.024 136.989 118.023 0 65.9949 -136.989z"
   id="glyph9986" />
   <glyph
   unicode="á"
   horiz-adv-x="556"
   d="M404.989 64.99c-32.6496,-27.8307 -64.1653,-47.3123 -94.3153,-58.8311 -30.1757,-11.4931 -62.5161,-17.1623 -97.1757,-17.1623 -57.0015,0 -100.835,13.8381 -131.5,41.6688 -30.6654,27.6761 -45.998,63.1603 -45.998,106.324 0,25.3569 5.82384,48.5234 17.3427,69.4996 11.6477,21.0019 26.8257,37.6746 45.4827,50.353 18.8373,12.6527 39.8392,22.3161 63.3407,28.8357 17.3427,4.48384 43.4984,8.81307 78.3384,13.1681 70.9942,8.32346 123.486,18.4765 156.986,30.15 0.335,12.0085 0.515384,19.6619 0.515384,22.8315 0,35.6646 -8.34922,60.8411 -24.9961,75.5038 -22.4965,19.8423 -55.9965,29.6604 -100.345,29.6604 -41.4884,0 -72.1538,-7.31846 -91.8415,-21.8265 -19.8165,-14.5081 -34.3246,-40.1742 -43.8334,-77.153l-85.9919 11.9827c7.83384,36.85 20.6669,66.6649 38.6796,89.3419 17.9869,22.6511 43.988,39.9938 77.9776,52.3373 33.835,12.1631 73.3392,18.3219 118.023,18.3219 44.323,0 80.4772,-5.15384 108.334,-15.6677 27.6504,-10.4881 48.1627,-23.5015 61.1503,-39.3238 13.0135,-15.8481 22.1615,-35.845 27.4957,-60.0165 2.83461,-14.9977 4.355,-41.978 4.355,-80.8122l0 -116.683c0,-81.4822 1.82961,-132.995 5.48884,-154.821 3.50461,-21.8265 10.8231,-42.6738 21.4915,-62.6707l-91.9961 0c-8.83884,18.5023 -14.5081,40.1742 -17.0077,64.99zm-6.98346 195.021c-32.0054,-13.0135 -80.0134,-24.0169 -143.998,-33.0104 -36.3346,-5.17961 -62.0007,-11.0035 -76.9984,-17.4973 -14.9977,-6.49384 -26.5165,-16.0027 -34.6854,-28.3461 -8.16884,-12.4981 -12.3177,-26.3361 -12.3177,-41.6688 0,-23.1665 8.83884,-42.648 26.6711,-58.1611 17.8323,-15.4873 43.8334,-23.3211 77.9776,-23.3211 33.835,0 64.0107,7.31846 90.5015,22.1615 26.3361,14.6627 45.8434,34.84 58.1869,60.3257 9.48307,19.8423 14.1473,49.013 14.1473,87.5122l0.515384 32.0054zm-184.997 322.991l63.985 136.989 116.013 0 -106.994 -136.989 -73.0042 0z"
   id="glyph9988" />
   <glyph
   unicode="ã"
   horiz-adv-x="556"
   d="M404.989 64.99c-32.6496,-27.8307 -64.1653,-47.3123 -94.3153,-58.8311 -30.1757,-11.4931 -62.5161,-17.1623 -97.1757,-17.1623 -57.0015,0 -100.835,13.8381 -131.5,41.6688 -30.6654,27.6761 -45.998,63.1603 -45.998,106.324 0,25.3569 5.82384,48.5234 17.3427,69.4996 11.6477,21.0019 26.8257,37.6746 45.4827,50.353 18.8373,12.6527 39.8392,22.3161 63.3407,28.8357 17.3427,4.48384 43.4984,8.81307 78.3384,13.1681 70.9942,8.32346 123.486,18.4765 156.986,30.15 0.335,12.0085 0.515384,19.6619 0.515384,22.8315 0,35.6646 -8.34922,60.8411 -24.9961,75.5038 -22.4965,19.8423 -55.9965,29.6604 -100.345,29.6604 -41.4884,0 -72.1538,-7.31846 -91.8415,-21.8265 -19.8165,-14.5081 -34.3246,-40.1742 -43.8334,-77.153l-85.9919 11.9827c7.83384,36.85 20.6669,66.6649 38.6796,89.3419 17.9869,22.6511 43.988,39.9938 77.9776,52.3373 33.835,12.1631 73.3392,18.3219 118.023,18.3219 44.323,0 80.4772,-5.15384 108.334,-15.6677 27.6504,-10.4881 48.1627,-23.5015 61.1503,-39.3238 13.0135,-15.8481 22.1615,-35.845 27.4957,-60.0165 2.83461,-14.9977 4.355,-41.978 4.355,-80.8122l0 -116.683c0,-81.4822 1.82961,-132.995 5.48884,-154.821 3.50461,-21.8265 10.8231,-42.6738 21.4915,-62.6707l-91.9961 0c-8.83884,18.5023 -14.5081,40.1742 -17.0077,64.99zm-6.98346 195.021c-32.0054,-13.0135 -80.0134,-24.0169 -143.998,-33.0104 -36.3346,-5.17961 -62.0007,-11.0035 -76.9984,-17.4973 -14.9977,-6.49384 -26.5165,-16.0027 -34.6854,-28.3461 -8.16884,-12.4981 -12.3177,-26.3361 -12.3177,-41.6688 0,-23.1665 8.83884,-42.648 26.6711,-58.1611 17.8323,-15.4873 43.8334,-23.3211 77.9776,-23.3211 33.835,0 64.0107,7.31846 90.5015,22.1615 26.3361,14.6627 45.8434,34.84 58.1869,60.3257 9.48307,19.8423 14.1473,49.013 14.1473,87.5122l0.515384 32.0054zm-286.012 321.986c-0.335,33.5 9.01922,60.1711 27.8307,80.168 18.5023,19.8423 42.3388,29.8407 71.3549,29.8407 20.1515,0 47.6473,-8.50384 82.3326,-25.6661 19.1465,-9.50884 34.4792,-14.3277 45.8177,-14.3277 10.5138,0 18.5023,2.80884 24.0169,8.47807 5.48884,5.51461 9.32845,16.8531 11.6477,33.5l63.0057 0c-1.005,-36.9788 -10.3335,-64.655 -28.0111,-83.1572 -17.6519,-18.5023 -39.9938,-27.8307 -67.3092,-27.8307 -20.3577,0 -47.338,9.17384 -80.6834,27.3411 -21.8265,11.8281 -37.8292,17.6519 -48.008,17.6519 -10.9777,0 -19.9969,-3.83961 -26.6454,-11.6735 -7.16384,-7.65346 -10.6685,-19.1465 -10.3335,-34.3246l-65.0157 0z"
   id="glyph9990" />
   <glyph
   unicode="ç"
   horiz-adv-x="500"
   d="M404.989 189.996l86.0176 -12.0085c-9.50884,-59.1661 -33.5,-105.319 -72.3342,-138.819 -38.8342,-33.5 -86.6619,-50.1727 -143.174,-50.1727 -70.8396,0 -127.841,23.1665 -170.824,69.4996 -43.1634,46.333 -64.6807,112.663 -64.6807,199.016 0,55.9965 9.32845,104.829 27.8307,146.833 18.5023,41.8234 46.668,73.3134 84.6776,94.1607 37.8292,21.0019 79.0084,31.49 123.666,31.49 56.1769,0 102.33,-14.1731 137.994,-42.6738 35.845,-28.5007 58.8311,-68.9842 68.8296,-121.321l-84.9869 -12.9877c-8.16884,34.8142 -22.4965,60.9957 -43.3438,78.6476 -20.6669,17.4973 -45.663,26.3361 -74.9884,26.3361 -44.3488,0 -80.3484,-15.8223 -108.179,-47.4927 -27.6504,-31.825 -41.4884,-81.843 -41.4884,-150.492 0,-69.6799 13.3227,-120.188 39.9938,-151.678 26.8257,-31.49 61.6657,-47.338 104.494,-47.338 34.6854,0 63.4953,10.5138 86.5072,31.6704 23.1665,21.0019 37.8292,53.4969 43.988,97.3303zm-205.329 -275.988l25.3311 85.9919 65.0157 0 -16.1831 -52.0023c27.8307,-3.32423 48.8327,-11.8281 63.0057,-25.6661 14.1731,-13.6577 21.1823,-28.9904 21.1823,-45.8434 0,-24.3261 -11.8538,-45.8177 -35.51,-64.5003 -23.5015,-18.6569 -59.1661,-27.9854 -106.659,-27.9854 -26.8515,0 -50.5077,0 -70.8396,0l4.99923 62.0007c21.1565,-0.669999 36.4892,-1.005 46.4877,-1.005 30.8457,0 52.6723,4.17461 65.1703,12.6785 9.50884,6.49384 14.3277,14.3277 14.3277,23.8108 0,5.84961 -1.82961,11.0035 -5.64346,15.5131 -3.685,4.50961 -10.5138,8.50384 -20.5123,11.6735 -10.1531,3.16961 -26.8257,4.99923 -50.1727,5.33423z"
   id="glyph9992" />
   <glyph
   unicode="ó"
   horiz-adv-x="556"
   d="M33.0104 259.496c0,95.8357 26.6454,166.83 80.168,213.008 44.4777,38.3188 98.9795,57.4911 163.145,57.4911 71.1746,0 129.516,-23.3211 174.844,-69.9892 45.1734,-46.5134 67.8246,-111.014 67.8246,-193.166 0,-66.6649 -9.99845,-119.002 -29.9954,-157.166 -19.9969,-38.1642 -49.1677,-67.8503 -87.4865,-89.0069 -38.1642,-21.1565 -80.0134,-31.6704 -125.187,-31.6704 -72.6692,0 -131.32,23.1665 -176.158,69.6799 -44.8384,46.4877 -67.1546,113.488 -67.1546,200.819zm89.9861 -0.154615c0,-66.3299 14.5081,-116.013 43.4984,-148.843 29.1707,-33.0104 65.6599,-49.5027 109.828,-49.5027 43.6788,0 80.0134,16.4923 109.184,49.683 28.9904,33.165 43.4984,83.6469 43.4984,151.497 0,63.985 -14.6627,112.483 -43.8334,145.313 -29.1707,33.0104 -65.5053,49.5027 -108.849,49.5027 -44.1684,0 -80.6576,-16.3119 -109.828,-49.1677 -28.9904,-32.83 -43.4984,-82.3326 -43.4984,-148.482zm80.0134 323.661l63.985 136.989 116.013 0 -107.02 -136.989 -72.9784 0z"
   id="glyph9994" />
  </font>
</defs>
</svg>
